HOME

공지사항   |   토렌트팁   |   로그인   |   회원가입   |   즐겨찾기추가

영화  |  지난영화  |  3D  |  국내TV  |  해외TV  |  스포츠  |  음악  |  만화  |  애니  |  유틸  |  게임  |  모바일  |  어린이  |  동영상  |  기타1  |  기타2  |  성인

작성일 : 17-11-05 01:03
[SF/판타지] [한글] 스몰 솔저 Small Soldiers 1998 1080p Bluray x265 10Bit AAC 5.1 - GetSchwifty
글쓴이 : 익명
조회 : 126  
다운로드 : [한글] 스몰 솔저 Small Soldiers 1998 1080p Bluray x265 10Bit AAC 5.1 - GetSchwifty.torrent (49.8k)
[한글] 스몰 솔저 Small Soldiers 1998 1080p Bluray x265 10Bit AAC 5 토렌트 torrent 파일 다운로드 마그넷 주소 무료 공짜 다시보기

Source File:

Small Soldiers 1998 BluRay 1080p DTS-HD MA 5.1 AVC REMUX-FraMeSToR 



Media Information:


Code:

General 
Complete name : Small Soldiers 1998 1080p Bluray x265 10Bit AAC 5.1 - GetSchwifty.mkv 
Format : Matroska 
Format version : Version 4 / Version 2 
File size : 3.03 GiB 
Duration : 1 h 49 min 
Overall bit rate : 3 951 kb/s 
Movie name : Small Soldiers 
Encoded date : UTC 2017-11-03 03:10:27 

Video 
ID : 1 
Format : HEVC 
Format/Info : High Efficiency Video Coding 
Format profile : Main [email protected]@Main 
Codec ID : V_MPEGH/ISO/HEVC 
Duration : 1 h 49 min 
Bit rate : 3 671 kb/s 
Width : 1 904 pixels 
Height : 816 pixels 
Display aspect ratio : 2.35:1 
Frame rate mode : Constant 
Frame rate : 23.976 (24000/1001) FPS 
Color space : YUV 
Chroma subsampling : 4:2:0 
Bit depth : 10 bits 
Bits/(Pixel*Frame) : 0.099 
Stream size : 2.82 GiB (93%) 

Audio 
ID : 2 
Format : AAC 
Format/Info : Advanced Audio Codec 
Format profile : LC 
Codec ID : A_AAC 
Duration : 1 h 49 min 
Bit rate : 265 kb/s 
Channel(s) : 6 channels 
Channel positions : Front: L C R, Side: L R, LFE 
Sampling rate : 48.0 kHz 
Frame rate : 46.875 FPS (1024 SPF) 
Compression mode : Lossy 
Delay relative to video : 9 ms 
Stream size : 206 MiB (7%) 
Title : DTS-HD MA 5.1 
Language : English 
Default : Yes 
Forced : No 

Text #1 
ID : 3 
Format : PGS 
Muxing mode : zlib 
Codec ID : S_HDMV/PGS 
Codec ID/Info : Picture based subtitle format used on BDs/HD-DVDs 
Duration : 1 h 48 min 
Bit rate : 31.2 kb/s 
Count of elements : 2422 
Stream size : 24.3 MiB (1%) 
Title : English 
Language : English 
Default : No 
Forced : No 

장난감 인형이 살아서 움직이고 말도 하면 얼마나 좋을까. 누구나 어릴 때 가졌음직한 이런 바람을 스티븐 스필버그의 드림웍스와 할리우드 메이저 영화사 유니버설 스튜디오가 손잡고 영화로 실현시켰다. 미국 해병대를 닮은 코만도 엘리트라는 장난감 인형들의 구실은 동물인형 고고나이트들을 제거하는 것. 보통의 장난감이라면 쫓고 쫓기는 코만도 엘리트와 고고나이트의 배역을 아이들이 대행해야 할텐데 주인공 소년 앨런에게 장난감 가게에 배달된 이 장난감은 달랐다.조 단테 감독은 [그렘린]에서처럼 장난을 좋아해도 끔찍한 장난을 좋아한다. 살아 움직이는 장난감을 바라는 꿈은 곧 악몽으로 바뀐다. 특수효과의 첨단을 걷는 ILM사가 컴퓨터그래픽으로 인형들에게 움직임을 줬으며, 토미 리 존스가 코만도 엘리트의 하자드 대장 목소리 연기를 맡았다.

171103 171104 171105 [한글] 스몰 솔저 Small Soldiers 1998 1080p Bluray x265 10Bit AAC 5 torrent 고화질 실시간 마그넷 보기

 

Total. 501
번호 제   목 글쓴이 날짜
501 [SF/판타지] [한글] 어비스: 메가 샤크 Mega.Shark.vs..Mecha.Shark.2014.720+1080p.BluR… 익명 17:03
500 [SF/판타지] [한글] 라비린스 Labyrinth.1986.1080p.BluRay.x264.TrueHD.7.1.Atmos-SWTYBLZ 익명 17:03
499 [SF/판타지] [한글] 크리스마스 캐롤 A Christmas Carol 1984 1080p BluRay x264 DTS 5.1… 익명 03:03
498 [SF/판타지] [한글] 2001 스페이스 오딧세이 2001.A.Space.Odyssey.1968.720p+1080p.Blu… 익명 12-14
497 [SF/판타지] [한글] 터미네이터 (리마스터) The.Terminator.1984.1080p.BluRay.x265.HE… 익명 12-13
496 [SF/판타지] [한글] 판타스틱 4 Fantastic.Four.2015.2160p.BluRay.REMUX.HEVC.DTS-HD.MA.7.… 익명 12-13
495 [SF/판타지] [한글] 판타스틱 4 Fantastic.Four.2015.2160p.BluRay.HEVC.DTS-HD.MA.7.1-COAS… 익명 12-13
494 [SF/판타지] [한글] 스타워즈: 깨어난 포스 Star.Wars.Episode.VII.The.Force.Awakens.… 익명 12-13
493 [SF/판타지] [한글] 스타워즈 에피소드 6 - 제다이의 귀환 Star.Wars.Episode.VI.… 익명 12-13
492 [SF/판타지] [한글] 화씨 451 Fahrenheit.451.1966.1080p.BluRay.x264.YIFY 익명 12-12
491 [SF/판타지] [한글] 판타스틱 4 Fantastic.Four.2015.2160p.BluRay.x265.10bit.HDR.DTS-HD.M… 익명 12-12
490 [SF/판타지] [한글] 와일드 와일드 웨스트 Wild.Wild.West.1999.1080p.BluRay.x265.HEV… 익명 12-10
489 [SF/판타지] [한글] 가위손 Edward Scissorhands 1990 25th Anniv (1080p Bluray x265 HEVC 1… 익명 12-10
488 [SF/판타지] [한글] 데어데블 (감독판) Daredevil 2003 Directors Cut 1080p BluRay x264… 익명 12-10
487 [SF/판타지] [한글] 달의 첫 인간 First.Men.in.the.Moon.1964.720p.BluRay.x264.YIFY 익명 12-10
486 [SF/판타지] [한글] 쥬만지 Jumanji (1995) (1080p BluRay x265 HEVC 10bit AAC 5 1 Qman) [U… 익명 12-10
485 [SF/판타지] [한글] 스폰 Spawn.1997.720+1080p.BluRay.x264-[YTS.AG] 익명 12-09
484 [SF/판타지] [한글] 브라질 Brazil.1985.Directors.Cut.1080p.BluRay.X264-AMIABLE 익명 12-09
483 [SF/판타지] [한글] 미이라 The.Mummy.1999.1080p.BluRay.x265.HEVC.10bit.5,1ch(xxxpav69) 익명 12-08
482 [SF/판타지] [한글] 자투라 - 스페이스 어드벤쳐 Zathura.A.Space.Adventure.2005.10… 익명 12-04
481 [SF/판타지] [한글] 타임 머신 The.Time.Machine.1960.1080p.BluRay.x264.YIFY 익명 12-03
480 [SF/판타지] [한글] 쥬만지 Jumanji (1995) [720p]+[1080p] [YTS] [YIFY] 익명 12-03
479 [SF/판타지] [무] 니코 더 유니콘 Nico.the.Unicorn.1998.720p/1080p.BluRay.H264.AAC-RARB 익명 12-03
478 [SF/판타지] [무] 니코 더 유니콘 Nico.the.Unicorn.1998.720p/1080p.BluRay.x264-GUACAMOL 익명 12-03
477 [SF/판타지] [한글] 배틀스타 갤럭티카 Battlestar.Galactica.1978.720p+1080p.BluRay.x… 익명 11-29
 1  2  3  4  5  6  7  8  9  10    

공지사항

토렌트 프로그램 다운!!

저작권 보호요청 안내.

토렌트 사이트 오픈 하였습니…

제휴사이트

minecraftfreeversion.com

jejupassport.com

chosen.kr

navidisk.co.kr

nudetemple.com

hantorrent.net

chaebomi.com

fortoset.org

btmoa.net

Copyright ⓒ schooltorrent.com All rights reserved.

본 사이트 게시물의 제목, 내용 등 모든 컨텐츠은 로봇이 수집한 것이며, 실제로 사이트가 운영되거나 파일이 다운로드되지는 않습니다.